EmulateursOutils

Formats Image CD : BIN CUE ISO IMG CCD PBP

Voici une présentation des différents formats de fichiers de jeux issu de CD. Avec leurs avantages et inconvénients. Cet article est lion d’être terminé.
Voici donc ce que vous pouvez trouver en format de jeux :

Fichiers .PBP (Playstation)

C’est une image d’un jeu PS1, c’est a mon sens LE format a utiliser car il propose bien des avantages, plusieurs outils peuvent construire un fichier .PBP (PSX2PSP v1.4.2) Certains fichier .PBP ne contiennent que la piste de donnée (le jeu proprement dit) sans les pistes de musiques, le fichier sera donc plus petit, a vous de voir si vous voulez avec ou sans la musique des pistes audio.
Avantages : il n’y a qu’1 seul fichier pour le jeu (donnée et musiques), facile a trier, facile a renommer, facile pour s’y retrouver. Le fichier est compressé, vous gagnerez donc de la place. Apres avoir fait plusieurs test (.PBP, .BIN, .CUE) , je n’ai constaté aucune latence quant au lancement d’un jeu au format .PBP. Les émulateurs peuvent lancer le jeux directement, pas de latence
Inconvénients : Aucun

Fichiers .BIN .CUE : 1+1

C’est une image d’un jeux au format d’un disque complet, c’est à dire que toutes les pistes (données et musiques) sont dans le même fichier .BIN, le fichier .CUE.
Avantage : Les émulateurs peuvent lancer le jeux directement, pas de latence
Inconvénient : Le fichier .CUE est un fichier texte qui contient le nom du fichier .BIN, si vous renommer ce dernier il faudra obligatoirement éditer le fichier .CUE et modifier son contenu. Certains .CUE ne sont pas bien ecrit, il y a le chemin complet du fichier .BIN. Le mieux serait de passer au format .PBP . Aucune compression, les jeux peuvent donc prendre beaucoup de place.
Exemple d’un fichier .CUE mal construit :
FILE "c:\playstation1\Dream Story-PSX-PAL-FR.bin" BINARY
TRACK 01 MODE2/2352
INDEX 01 00:00:00
TRACK 02 AUDIO
INDEX 00 01:51:33
INDEX 01 01:53:33


Préconisation: Si c’est un jeu PS1, transformer le fichier au format .PBP en utilisant PSX2PSP v1.4.2, attention PSX2PSP ne prends que le premier fichier .BIN, si vous avez plusieurs fichiers .BIN pour un jeu, c’est qu’il est au format piste a piste, il faudra d’abord les convertir au format disque entier avec CDmage, vous pouvez aller voir cet article.

Fichiers .BIN .CUE : x+1

C’est une image d’un jeux au format piste par piste (track), c’est à dire qu’il y a un fichier .BIN par piste (donnée et musiques). c’est a mon sens le format a éviter, car vous allez vous retrouver avec des centaines/ milliers de fichiers, il sera donc très difficile de s’y retrouver et de lister vos jeux, et je ne parle même pas si vous devez renommer un jeux.
Avantage : Les émulateurs peuvent lancer le jeux directement, pas de latence
Inconvénient : Le fichier .CUE est un fichier texte qui contient le nom de tous les fichiers .BIN, si vous renommer ce ou ces derniers il faudra obligatoirement éditer le fichier .CUE et modifier son contenu. Aucune compression, les jeux peuvent donc prendre beaucoup de place.
Exemple d’un fichier .CUE par piste :
FILE "Firebugs (Europe) (En,Fr,De,Es,It,Nl,Pt,Sv,Nn,Da,Fi) (Track 01).bin" BINARY
TRACK 01 MODE2/2352
INDEX 01 00:00:00
FILE "Firebugs (Europe) (En,Fr,De,Es,It,Nl,Pt,Sv,Nn,Da,Fi) (Track 02).bin" BINARY
TRACK 02 AUDIO
INDEX 00 00:00:00
INDEX 01 00:02:00
FILE "Firebugs (Europe) (En,Fr,De,Es,It,Nl,Pt,Sv,Nn,Da,Fi) (Track 03).bin" BINARY
TRACK 03 AUDIO
INDEX 00 00:00:00
INDEX 01 00:02:00


Préconisation : Convertir les fichiers pour passer en mode disque complet avec un outils comme CDmage v1.02.1. Si c’est un jeu PS1 le convertir ensuite en .PBP avec PSX2PSP v1.4.2

Fichiers .CCD .IMG .SUB .CUE

Bientôt…

Fichiers .ISO

Bientôt…

Fichiers .RAR, .ZIP , .7Z

Peu d’émulateur peuvent lancer un jeu CD au format ZIP, RAR ou 7Z. La décompression demande trop de temps et de ressource pour être transparente. La compression est acceptable pour des roms de petite taille.
Pour les jeux Playstation si vous voulez gagner de la place, je vous conseille de transformer vos fichiers au format .PBP

Fichiers .BIN et pas de .CUE

Certains sites proposent des fichiers .ZIP ou .RAR qui ne contiennent pas le fichier .CUE. je trouve cela dommage, même si on peut transformer le .BIN en .PBP sans le .CUE, et que certains émulateurs n’ont pas besoin du fichier .CUE. Cela ne coûte pas grand chose d’jouter ce fichier de 1ko dans l’archive.
Il existe plusieurs outils pour regénérer le fichier .CUE manquant, je présente dans un autre article une méthode simple et rapide.

Une réflexion au sujet de « Formats Image CD : BIN CUE ISO IMG CCD PBP »

Laisser un commentaire